Loading...
Error

Дизель Шоу (56 выпусков) [2019 г., концерт, сатира, юмор, SATRip]

Статистика раздачи
Размер:  47,94 GB   |    Зарегистрирован:  6 месяцев   |    Скачан:  11 раз

Полного источника не было: 7 дней

Сидов:  0  |  0 KB/s  ]   Личеров:  0  |  0 KB/s  ]

* - сиды/пиры с внешних источников

   
 
Автор Сообщение

Паукан Пол:Муж

01-Окт-2020 16:51

Дизель Шоу


Дата/Год выпуска: 2019
Страна: Украина
Жанр: концерт, сатира, юмор
Продолжительность: 56x70 мин.
Перевод: Не требуется
Русские субтитры: нет

Оригинальная аудиодорожка: русский
Телеканал: ICTV

Описание: Давно знакомые зрителям «дизели» Егор Крутоголов, Александр Бережок и Евгений Гашенко заручились поддержкой своих не менее именитых коллег. «Дизель Шоу» – это лучшие шутки и номера от Евгения Сморигина, Олега Иваницы, Виктории Булитко, Яны Глущенко, Марины Поплавской. Их давно знают и любят настоящие ценители хорошего юмора. Шутки на самые актуальные темы, многочисленные сценки в стиле СТЭМа, музыкальные номера и даже розыгрыши зрителей в зале – все это «Дизель Шоу»!


Сэмпл: https://www.sendspace.com/file/i0vnby

качество: SATRip
формат: AVI
Видео: Xvid 720x400 (16:9) 1536kbps 25fps
Аудио: MP3 192kbps 48kHz 2ch
1. Выпуск от 1 февраля 2019 года (дайджест).
2. Выпуск от 8 февраля 2019 года (дайджест).
3. Выпуск от 15 февраля 2019 года (дайджест).
4. Выпуск от 22 февраля 2019 года (дайджест).
5. Выпуск от 1 марта 2019 года (дайджест).
6. Выпуск от 8 марта 2019 года.
7. Выпуск от 15 марта 2019 года.
8. Выпуск от 22 марта 2019 года.
9. Выпуск от 29 марта 2019 года (дайджест). Часть 1.
10. Выпуск от 29 марта 2019 года (дайджест). Часть 2.
11. Выпуск от 5 апреля 2019 года (дайджест).
12. Выпуск от 12 апреля 2019 года (дайджест).
13. Выпуск от 19 апреля 2019 года (дайджест).
14. Выпуск от 3 мая 2019 года.
15. Выпуск от 10 мая 2019 года.
16. Выпуск от 17 мая 2019 года.
17. Выпуск от 24 мая 2019 года.
18. Выпуск от 31 мая 2019 года (дайджест).
19. Выпуск от 7 июня 2019 года (дайджест).
20. Выпуск от 28 июня 2019 года (дайджест).
21. Выпуск от 5 июля 2019 года (дайджест).
22. Выпуск от 12 июля 2019 года (дайджест).
23. Выпуск от 19 июля 2019 года (дайджест). Часть 1.
24. Выпуск от 19 июля 2019 года (дайджест). Часть 2.
25. Выпуск от 26 июля 2019 года (дайджест).
26. Выпуск от 2 августа 2019 года (дайджест).
27. Выпуск от 9 августа 2019 года (дайджест).
28. Выпуск от 16 августа 2019 года (дайджест).
29. Дайджест ко Дню Независимости 2019.
30. Дайджест ко Дню Независимости 2017.
31. Дайджест ко Дню Независимости 2018.
32. Выпуск от 30 августа 2019 года (дайджест).
33. Выпуск от 6 сентября 2019 года.
34. Выпуск от 9 сентября 2019 года (дайджест).
35. Выпуск от 13 сентября 2019 года.
36. Выпуск от 20 сентября 2019 года (дайджест).
37. Выпуск от 27 сентября 2019 года (дайджест).
38. Выпуск от 4 октября 2019 года (дайджест).
39. Выпуск от 11 октября 2019 года (дайджест).
40. Выпуск от 18 октября 2019 года.
41. Концерт памяти Марианны Поплавской.
42. Выпуск от 25 октября 2019 года.
43. Выпуск от 1 ноября 2019 года.
44. Выпуск от 8 ноября 2019 года.
45. Выпуск от 9 ноября 2019 года (дайджест №1).
46. Выпуск от 9 ноября 2019 года (дайджест №2).
47. Выпуск от 15 ноября 2019 года (дайджест).
48. Выпуск от 22 ноября 2019 года (дайджест).
49. Выпуск от 29 ноября 2019 года (дайджест).
50. Выпуск от 6 декабря 2019 года.
51. Выпуск от 13 декабря 2019 года.
52. Выпуск от 20 декабря 2019 года.
53. Выпуск от 25 декабря 2019 года (дайджест).
54. Выпуск от 27 декабря 2019 года (дайджест).
55. Новогодний концерт 2020.
56. Новогодний концерт 2018.
 
General
Complete name : F:\Мои раздачи\Телепрограммы\Дизель Шоу (2019)\Dizel.Show.Digest.2019.02.01.avi
Format : AVI
Format/Info : Audio Video Interleave
File size : 895 MiB
Duration : 1 h 12 min
Overall bit rate : 1 736 kb/s

Video
ID : 0
Format : MPEG-4 Visual
Format profile : Advanced Simple@L5
Format settings : BVOP2
Format settings, BVOP : 2
Format settings, QPel : No
Format settings, GMC : No warppoints
Format settings, Matrix : Default (H.263)
Codec ID : XVID
Codec ID/Hint : XviD
Duration : 1 h 12 min
Bit rate : 1 534 kb/s
Width : 720 pixels
Height : 400 pixels
Display aspect ratio : 16:9
Frame rate : 25.000 FPS
Color space : YUV
Chroma subsampling : 4:2:0
Bit depth : 8 bits
Scan type : Progressive
Compression mode : Lossy
Bits/(Pixel*Frame) : 0.213
Stream size : 791 MiB (88%)
Writing library : XviD 67

Audio
ID : 1
Format : MPEG Audio
Format version : Version 1
Format profile : Layer 3
Format settings : Joint stereo
Codec ID : 55
Codec ID/Hint : MP3
Duration : 1 h 12 min
Bit rate mode : Constant
Bit rate : 192 kb/s
Channel(s) : 2 channels
Sampling rate : 48.0 kHz
Compression mode : Lossy
Stream size : 99.0 MiB (11%)
Alignment : Split accross interleaves
Interleave, duration : 40 ms (1.00 video frame)
Interleave, preload duratio : 500 ms

Этот торрент недоступен для скачивания без регистрации, однако доступен по публичной magnet-ссылке (источники с публичных трекеров). Перед использованием ссылки прочтите, пожалуйста Пользовательское соглашение, а также как можно дольше оставайтесь на раздаче! Для того, чтобы скачать сам торрент-файл (который видит больше источников), а также для того, чтобы поблагодарить релизера, вам необходимо зарегистрироваться. Если регистрироваться лень - вы можете также попробовать скачать релиз по нашим партнерским ссылкам ниже. Кроме того, зарегистрированным пользователям не показывается всплывающая реклама при скачивании.

[underver.se].t182842.torrent
Трекер: Зарегистрирован   [ 01.10.2020 16:51 ]  

Статус: проверено (by Паукан at 01.10.2020 16:52)
Поблагодарили: пока никто не поблагодарил...
Тип торрента: публичный - доступные источники с открытых трекеров: 
Размер: 47,94 GB (занимает 10,95 DVDR, для записи нужно 11 болванок DVDR/RW)
 
 

Яндекс.Метрика powered by Sphinx


В Н И М А Н И Е
Сайт не распространяет и не хранит электронные версии произведений, а лишь бесплатно и без коммерческой выгоды (не требуя взамен платы,
SMS и т.д.) предоставляет доступ к создаваемому пользователями каталогу ссылок на торрент-файлы, которые содержат только списки хеш-сумм.
Убедительная просьба с жалобами обращаться напрямую к пользователю, разместившему торрент файл.

Вверх