Loading...
Error

(Classical) VA - Weekend classics series by Deutsche Grammophon (11 CD из 35) (2005-2010) [APE, FLAC (Image+.CUE, Tracks+.Cue), lossless]

Статистика раздачи
Размер:  2,81 GB   |    Зарегистрирован:  7 месяцев   |    Скачан:  6 раз

Полного источника не было: 9 дней

Сидов:  0  |  0 KB/s  ]   Личеров:  0  |  0 KB/s  ]

* - сиды/пиры с внешних источников

   
 
Автор Сообщение

eXtatik Пол:Муж

21-Сен-2020 17:57

VA - Weekend classics series by Deutsche Grammophon (11 CD из 35)

Год: 2005-2010
Жанр: Classical
Продолжительность: 12:37:13

Кодек: APE, FLAC
Битрейт: Lossless
Тип рипа: image+.cue, tracks+.cue

Series Weekend Сlassics By Deutsche Grammophon

Диски:
Прoдолжительность: 01:14:52
Кодек: APE
Тип рипа: image +.cue

Трeклист:
Composer: Ludwig van Beethoven (1770 - 1827) 

Piano Sonata No.14 in C sharp minor "Moonlight" - Op. 27/2:
01 1.Adagio sostenuto-attaca (06:02)
02 2.Allegretto-attaca (02:20)
03 3.Presto agitato (05:37)

Piano Sonata No.23 in F minor "Appassionata" - Op. 57:
04 1.Allegro assai (09:52)
05 2.Andante con moto-attaca (05:56)
06 3.Allegro ma non troppo-Presto (08:55)
07 6 Ecossaises, WoO 83 No. 1 (02:36)
08 Rondo a Capriccio in G major ("Rage Over a Lost Penny"),
Op. 129 (06:29)
09 Rondo in C, Op.51, No.1 - Moderato e grazioso (06:36)
10 Rondo in G, Op.51, No.2 - Andante cantabile e grazioso (09:04)
11 Bagatelle in A minor, WoO 59 - "Fur Elise" Poco moto (03:15)
12 Andante favori in F major, WoO 57 - Andante grazioso con moto
(08:11)

Artists: Wilhelm Kempff, Piano
Exact Audio Copy V0.99 prebeta 4 from 23. January 2008

Отчёт EAC об извлечении, выполненном 1. мая 2008, 16:09

Beethoven / a Beethoven Piano Weekend

Дисковод: TSSTcorpCD/DVDW SH-S182M Adapter: 4 ID: 0

Режим чтения : Достоверность
Использование точного потока : Да
Отключение кэша аудио : Да
Использование указателей C2 : Нет

Коррекция смещения при чтении : 6
Способность читать области Lead-in и Lead-out : Нет
Заполнение пропущенных сэмплов тишиной : Да
Удаление блоков с тишиной в начале и конце : Нет
При вычислениях CRC использовались нулевые сэмплы : Да
Интерфейс : Установленный внешний ASPI-интерфейс

Выходной формат : Monkey's Audio (без потерь)
Выбранный битрейт : Extra High Lossless Compression
Качество : Высокий
Добавление ID3-тэга : Да
Утилита сжатия : C:\Program Files\Monkey's Audio\MAC.exe

TOC извлечённого CD

Трек | Старт | Длительность | Начальный сектор | Конечный сектор
---------------------------------------------------------------------
1 | 0:00.00 | 6:01.61 | 0 | 27135
2 | 6:01.61 | 2:19.53 | 27136 | 37613
3 | 8:21.39 | 5:37.14 | 37614 | 62902
4 | 13:58.53 | 9:52.14 | 62903 | 107316
5 | 23:50.67 | 5:55.70 | 107317 | 134011
6 | 29:46.62 | 8:55.05 | 134012 | 174141
7 | 38:41.67 | 2:35.48 | 174142 | 185814
8 | 41:17.40 | 6:29.18 | 185815 | 215007
9 | 47:46.58 | 6:35.74 | 215008 | 244706
10 | 54:22.57 | 9:03.52 | 244707 | 285483
11 | 63:26.34 | 3:14.68 | 285484 | 300101
12 | 66:41.27 | 8:10.57 | 300102 | 336908

Характеристики диапазона извлечения и сообщения об ошибках

Выбранный диапазон

Имя файла D:\Documents\twdragon\Моя музыка\LOSSLESS\Classical\Weekend Classics\Beethoven Piano Weekend\Beethoven - a Beethoven Piano Weekend.wav

Пиковый уровень 96.5 %
Качество диапазона 100.0 %
CRC копии 2366ED8F
Копирование... OK

Ошибок не произошло

AccurateRip: сводка

Трек 1 нет в базе данных
Трек 2 нет в базе данных
Трек 3 нет в базе данных
Трек 4 нет в базе данных
Трек 5 нет в базе данных
Трек 6 нет в базе данных
Трек 7 нет в базе данных
Трек 8 нет в базе данных
Трек 9 нет в базе данных
Трек 10 нет в базе данных
Трек 11 нет в базе данных
Трек 12 нет в базе данных

Ни одного трека нет в базе AccurateRip

Конец отчёта
AUDIOCHECKER v2.0 beta (build 457) - by Dester - opdester@freemail.hu
~~~~~~~~~~~~~~~~~~~~~~~~~~~~~~~~~~
-=== НЕ РЕДАКТИРУЙТЕ ЭТОТ ФАЙЛ! ===-

Путь: ...\а Beethoven Piano Weekend

1 -=- Beethoven - a Beethoven Piano Weekend.ape -=- CDDA (100%)

246363844
Прoдолжительность: 01:14:57
Кодек: APE
Тип рипа: image +.cue

Трeклист:
Composer:  Joaquin Rodrigo (1901 - 1999) 

Concierto de Aranjuez for Guitar and Orchestra
01 1.Allegro con spirito (05:30)
02 2.Adagio - Cadenza: Joaquin Rodrigo (09:39)
03 3.Allegro gentile (04:55)

Artists: Siegfried Behrend, Guitar
Orchestra: Berliner Philharmoniker
Conductor: Reinhard Peters
_______________________________________________

Composer: Narciso Yepes (1927 - 1997)

04 Jeux interdits (Romance) (02:30)

Artists: Narciso Yepes, Guitar
_______________________________________________

Composer: Heitor Villa-Lobos (1887 - 1959)

05 Prelude No.1 in E minor for Guitar (04:46)

Artists: Narciso Yepes, Guitar
_______________________________________________

Composer: Isaac Albeniz (1860 - 1909)

06 Suite espanola, Op.47 (06:29)

Transcr. A. Segovia
Asturias (Leyenda)
Artists: Narciso Yepes, Guitar

07 Piezas caracteristicas
Transcription by Narciso Yepes
12.Torre bermeja. Serenata (04:35)

Artists: Narciso Yepes, Guitar
_______________________________________________

Composer: Antonio Vivaldi (1678 - 1741)

Concerto in D major (after RV93)
Arr. for guitar by Siegfried Behrend
08 1.Allegro (03:10)
09 2.Andante largo (03:22)
10 3.Allegro (02:07)

Artists: Siegfried Behrend, Guitar
Ensemble: I Musici
_______________________________________________

Composer: Mauro Giuliani (1781 - 1829)

Guitar Concerto No.1 in A, Op.30
Arr. Siegfried Behrend
11 1.Allegro maestoso (13:03)
12 2.Andantino (Siciliano) (05:50)
13 3.Polonaise (Allegretto) (09:02)

Artists: Siegfried Behrend, Guitar
Ensemble: I Musici
Exact Audio Copy V0.99 prebeta 4 from 23. January 2008

Отчёт EAC об извлечении, выполненном 3. февраля 2010, 21:34

Various / a Guitar weekend

Дисковод: ASUS DRW-20B1LT Adapter: 2 ID: 0

Режим чтения : Достоверность
Использование точного потока : Да
Отключение кэша аудио : Да
Использование указателей C2 : Нет

Коррекция смещения при чтении : 6
Способность читать области Lead-in и Lead-out : Да
Заполнение пропущенных сэмплов тишиной : Да
Удаление блоков с тишиной в начале и конце : Нет
При вычислениях CRC использовались нулевые сэмплы : Нет
Интерфейс : Встроенный Win32-интерфейс для Win NT/2000

Выходной формат : Monkey's Audio (без потерь)
Выбранный битрейт : Extra High Lossless Compression
Качество : Высокий
Добавление ID3-тэга : Да
Утилита сжатия : C:\Program Files\Monkey's Audio\MAC.exe
Смещение при сжатии : 2257

TOC извлечённого CD

Трек | Старт | Длительность | Начальный сектор | Конечный сектор
---------------------------------------------------------------------
1 | 0:00.00 | 5:30.22 | 0 | 24771
2 | 5:30.22 | 9:39.00 | 24772 | 68196
3 | 15:09.22 | 4:54.62 | 68197 | 90308
4 | 20:04.09 | 2:30.37 | 90309 | 101595
5 | 22:34.46 | 4:45.40 | 101596 | 123010
6 | 27:20.11 | 6:28.58 | 123011 | 152168
7 | 33:48.69 | 4:35.01 | 152169 | 172794
8 | 38:23.70 | 3:09.60 | 172795 | 187029
9 | 41:33.55 | 3:22.00 | 187030 | 202179
10 | 44:55.55 | 2:07.09 | 202180 | 211713
11 | 47:02.64 | 13:02.38 | 211714 | 270401
12 | 60:05.27 | 5:50.00 | 270402 | 296651
13 | 65:55.27 | 9:01.48 | 296652 | 337274

Характеристики диапазона извлечения и сообщения об ошибках

Выбранный диапазон

Имя файла D:\Documents\twdragon\Моя музыка\LOSSLESS\Classical\Weekend Classics\Guitar Weekend\Various - a Guitar weekend.wav

Пиковый уровень 85.3 %
Качество диапазона 100.0 %
CRC теста B84927FE
CRC копии B84927FE
Копирование... OK

Ошибок не произошло

AccurateRip: сводка

Трек 1 точное извлечение (доверие 2) [F907B6BD]
Трек 2 точное извлечение (доверие 2) [1A3D47A6]
Трек 3 точное извлечение (доверие 2) [416E970F]
Трек 4 точное извлечение (доверие 2) [88383E18]
Трек 5 точное извлечение (доверие 2) [1E3353BB]
Трек 6 точное извлечение (доверие 2) [28AFF1E4]
Трек 7 точное извлечение (доверие 2) [2DD21DBF]
Трек 8 точное извлечение (доверие 2) [8465BCF2]
Трек 9 точное извлечение (доверие 2) [642F9E81]
Трек 10 точное извлечение (доверие 2) [704534FA]
Трек 11 точное извлечение (доверие 2) [529B8F3A]
Трек 12 точное извлечение (доверие 2) [17534891]
Трек 13 точное извлечение (доверие 2) [16236E1F]

Все треки извлечены точно

Конец отчёта
AUDIOCHECKER v2.0 beta (build 457) - by Dester - opdester@freemail.hu
~~~~~~~~~~~~~~~~~~~~~~~~~~~~~~~~~~
-=== НЕ РЕДАКТИРУЙТЕ ЭТОТ ФАЙЛ! ===-

Путь: ...\a Guitar Weekend

1 -=- Various - a Guitar weekend.ape -=- CDDA (100%)

216676036
Прoдолжительность: (00:58:55)
Кодек: APE
Тип рипа: image

Трeклист:
Composer:  Johann Strauss (1825 - 1899) 

01 An der schonen blauen Donau, Op.314 (09:45)
02 Kaiserwalzer, Op.437 (10:34)
03 Rosen aus dem Suden, Op.388 (08:25)
04 Wiener Blut, Op.354 (08:35)
05 Wiener Bonbons, Op.307 (09:21)

Orchestra: Wiener Philharmoniker
Conductor: Lorin Maazel

06 Geschichten aus dem Wienerwald, Op.325 (12:15)

Artists: Karl Swoboda, Zither
Orchestra: Wiener Philharmoniker
Conductor: Lorin Maazel
Exact Audio Copy V0.99 prebeta 4 from 23. January 2008

Отчёт EAC об извлечении, выполненном 5. июня 2008, 15:45

Johann Strauss / Johann Strauss Weekend

Дисковод: TSSTcorpCD/DVDW SH-S182M Adapter: 4 ID: 0

Режим чтения : Достоверность
Использование точного потока : Да
Отключение кэша аудио : Да
Использование указателей C2 : Нет

Коррекция смещения при чтении : 6
Способность читать области Lead-in и Lead-out : Нет
Заполнение пропущенных сэмплов тишиной : Да
Удаление блоков с тишиной в начале и конце : Нет
При вычислениях CRC использовались нулевые сэмплы : Да
Интерфейс : Установленный внешний ASPI-интерфейс

Выходной формат : Monkey's Audio (без потерь)
Выбранный битрейт : Extra High Lossless Compression
Качество : Высокий
Добавление ID3-тэга : Да
Утилита сжатия : C:\Program Files\Monkey's Audio\MAC.exe

TOC извлечённого CD

Трек | Старт | Длительность | Начальный сектор | Конечный сектор
---------------------------------------------------------------------
1 | 0:00.00 | 9:44.52 | 0 | 43851
2 | 9:44.52 | 10:33.69 | 43852 | 91395
3 | 20:18.46 | 8:25.22 | 91396 | 129292
4 | 28:43.68 | 8:34.59 | 129293 | 167901
5 | 37:18.52 | 9:21.06 | 167902 | 209982
6 | 46:39.58 | 12:14.73 | 209983 | 265105

Характеристики диапазона извлечения и сообщения об ошибках

Выбранный диапазон

Имя файла D:\Documents\twdragon\Моя музыка\LOSSLESS\Classical\Weekend Classics\Johann Strauss Weekend\Johann Strauss - Johann Strauss Weekend.wav

Пиковый уровень 99.7 %
Качество диапазона 100.0 %
CRC копии D57C8BE7
Копирование... OK

Ошибок не произошло

AccurateRip: сводка

Трек 1 нет в базе данных
Трек 2 нет в базе данных
Трек 3 нет в базе данных
Трек 4 нет в базе данных
Трек 5 нет в базе данных
Трек 6 нет в базе данных

Ни одного трека нет в базе AccurateRip

Конец отчёта
AUDIOCHECKER v2.0 beta (build 457) - by Dester - opdester@freemail.hu
~~~~~~~~~~~~~~~~~~~~~~~~~~~~~~~~~~
-=== НЕ РЕДАКТИРУЙТЕ ЭТОТ ФАЙЛ! ===-

Путь: ...\а Johann Strauss weekend

1 -=- Johann Strauss - Johann Strauss Weekend.ape -=- CDDA (100%)

12493140
Издание: Deutsche Grammophon DG - E4775703
Прoдолжительность: 01:15:33

Кодек: FLAC
Тип рипа: tracks + .cue

Трeклист:
Martha Argerich 
01. Chopin - Polonaise No.6 in A flat, Op.53 -"Heroic": Maestoso
(06:20)
02. Chopin - Prelude Op.28 No.7 in A major
(00:47)
03. Chopin - Prelude Op.28 No.15 in D flat major - "Raindrop"
(04:54)
Jean-Marc Luisada
04. Chopin - Waltz No.7 in C sharp minor, Op.64 No.2
(03:30)
Anatol Ugorski
05. Debussy - Suite bergamasque: 3. Clair de lune (05:54)
Andrei Gavrilov
06. Grieg - Lyric Pieces, Op.65: 6. Wedding Day at Troldhaugen (05:14)
Wilhelm Kempff
07. J.S. Bach: Prelude in C (WTK, Book I, No.1), BWV 846 (01:25)
08. J.S. Bach: Fugue in C (WTK, Book I, No.1), BWV 846 (01:57)
Andor Foldes
09. Brahms - Waltz, Op.39 No.15 in A flat (01:38)
Wilhelm Kempff
10. Beethoven - Rondo in G, Op.51, No.2: Andante cantabile e grazioso (09:01)
Anatol Ugorski
11. Beethoven - Bagatelle in A minor, WoO 59 -"Für Elise": Poco moto (04:01)
Roberto Szidon
12. Liszt - Hungarian Rhapsody No.2 in C sharp minor, S.244 (09:13)
Wilhelm Kempff
13. Mozart - Fantasia in D minor, K.397: Andante (05:43)
Christoph Eschenbach
14. Mozart - Rondo in D major, K.485: Allegro (06:09)
Wilhelm Kempff
15. Schubert - Impromptu, Op.90, D.899 No.2 in E flat: Allegro (04:39)
16. Schubert - Moment musicaux, Op.94 D.780 No.3 in F minor (Allegro moderato) (02:08)
Martha Argerich
17. Schumann - Kinderszenen, Op.15: 7. Träumerei (02:58)

Код:

Exact Audio Copy V0.99 prebeta 5 from 4. May 2009
EAC extraction logfile from 2. June 2010, 20:24

Various / A Piano Weekend

Used drive  : HL-DT-STDVDRAM GU10N   Adapter: 0  ID: 1

Read mode               : Secure
Utilize accurate stream : Yes
Defeat audio cache      : Yes
Make use of C2 pointers : No

Read offset correction                      : 667
Overread into Lead-In and Lead-Out          : No
Fill up missing offset samples with silence : Yes
Delete leading and trailing silent blocks   : No
Null samples used in CRC calculations       : Yes
Used interface                              : Native Win32 interface for Win NT & 2000
Gap handling                                : Appended to previous track

Used output format              : User Defined Encoder
Selected bitrate                : 1024 kBit/s
Quality                         : High
Add ID3 tag                     : No
Command line compressor         : C:\Program Files\Exact Audio Copy\FLAC\FLAC.EXE
Additional command line options : -V -8 -T "artist=%a" -T "title=%t" -T "album=%g" -T "date=%y" -T "tracknumber=%n" -T "genre=%m" %s

TOC of the extracted CD

     Track |   Start  |  Length  | Start sector | End sector
    ---------------------------------------------------------
        1  |  0:00.00 |  6:19.74 |         0    |    28498
        2  |  6:19.74 |  0:47.29 |     28499    |    32052
        3  |  7:07.28 |  4:54.24 |     32053    |    54126
        4  | 12:01.52 |  3:30.08 |     54127    |    69884
        5  | 15:31.60 |  5:54.15 |     69885    |    96449
        6  | 21:26.00 |  5:14.18 |     96450    |   120017
        7  | 26:40.18 |  1:24.62 |    120018    |   126379
        8  | 28:05.05 |  1:56.56 |    126380    |   135135
        9  | 30:01.61 |  1:37.52 |    135136    |   142462
       10  | 31:39.38 |  9:01.06 |    142463    |   183043
       11  | 40:40.44 |  4:01.37 |    183044    |   201155
       12  | 44:42.06 |  9:12.67 |    201156    |   242622
       13  | 53:54.73 |  5:43.10 |    242623    |   268357
       14  | 59:38.08 |  6:09.30 |    268358    |   296062
       15  | 65:47.38 |  4:39.35 |    296063    |   317022
       16  | 70:26.73 |  2:07.67 |    317023    |   326614
       17  | 72:34.65 |  2:57.51 |    326615    |   339940

Track  1

     Filename D:\EAC Rips\Various Artists - 1995 - A Piano Weekend\01 - 01 - Chopin- Polonaise - 01 - Chopin- Polonaise.wav

     Pre-gap length  0:00:02.00

     Peak level 75.8 %
     Track quality 100.0 %
     Test CRC E6B30ABC
     Copy CRC E6B30ABC
     Accurately ripped (confidence 1)  [34A99B02]
     Copy OK

Track  2

     Filename D:\EAC Rips\Various Artists - 1995 - A Piano Weekend\02 - 02 - Chopin- Prelude in A major - 02 - Chopin- Prelude in A major.wav

     Pre-gap length  0:00:01.97

     Peak level 25.2 %
     Track quality 100.0 %
     Test CRC 2091812D
     Copy CRC 2091812D
     Accurately ripped (confidence 1)  [536F58DA]
     Copy OK

Track  3

     Filename D:\EAC Rips\Various Artists - 1995 - A Piano Weekend\03 - 03 - Chopin- Prelude in D flat - 03 - Chopin- Prelude in D flat.wav

     Pre-gap length  0:00:01.97

     Peak level 99.2 %
     Track quality 100.0 %
     Test CRC 24C479B8
     Copy CRC 24C479B8
     Accurately ripped (confidence 1)  [C4DB39CD]
     Copy OK

Track  4

     Filename D:\EAC Rips\Various Artists - 1995 - A Piano Weekend\04 - 04 - Chopin- Waltz in C Sharp - 04 - Chopin- Waltz in C Sharp.wav

     Pre-gap length  0:00:02.12

     Peak level 55.3 %
     Track quality 100.0 %
     Test CRC 4F55F4BD
     Copy CRC 4F55F4BD
     Accurately ripped (confidence 1)  [E492BEE6]
     Copy OK

Track  5

     Filename D:\EAC Rips\Various Artists - 1995 - A Piano Weekend\05 - 05 - Debussy- Clare de lune - 05 - Debussy- Clare de lune.wav

     Pre-gap length  0:00:01.22

     Peak level 69.9 %
     Track quality 100.0 %
     Test CRC 77036A02
     Copy CRC 77036A02
     Accurately ripped (confidence 1)  [64E46AD7]
     Copy OK

Track  6

     Filename D:\EAC Rips\Various Artists - 1995 - A Piano Weekend\06 - 06 - Grieg- Wedding Day at Troldhaugen - 06 - Grieg- Wedding Day at Troldhaugen.wav

     Pre-gap length  0:00:01.58

     Peak level 99.9 %
     Track quality 100.0 %
     Test CRC F9283153
     Copy CRC F9283153
     Accurately ripped (confidence 1)  [DA161429]
     Copy OK

Track  7

     Filename D:\EAC Rips\Various Artists - 1995 - A Piano Weekend\07 - 07 - Bach- Prelude to Fague - 07 - Bach- Prelude to Fague.wav

     Pre-gap length  0:00:01.28

     Peak level 30.1 %
     Track quality 100.0 %
     Test CRC 223FBB20
     Copy CRC 223FBB20
     Accurately ripped (confidence 1)  [F16D5C96]
     Copy OK

Track  8

     Filename D:\EAC Rips\Various Artists - 1995 - A Piano Weekend\08 - 08 - Bach- Fague - 08 - Bach- Fague.wav

     Peak level 43.7 %
     Track quality 100.0 %
     Test CRC 572F82FE
     Copy CRC 572F82FE
     Accurately ripped (confidence 1)  [17A16E9A]
     Copy OK

Track  9

     Filename D:\EAC Rips\Various Artists - 1995 - A Piano Weekend\09 - 09 - Brahms- Waltz in A major - 09 - Brahms- Waltz in A major.wav

     Pre-gap length  0:00:02.14

     Peak level 39.7 %
     Track quality 100.0 %
     Test CRC 9302B830
     Copy CRC 9302B830
     Accurately ripped (confidence 1)  [B600F633]
     Copy OK

Track 10

     Filename D:\EAC Rips\Various Artists - 1995 - A Piano Weekend\10 - 10 - Beethoven- Rondo - 10 - Beethoven- Rondo.wav

     Pre-gap length  0:00:02.00

     Peak level 98.9 %
     Track quality 100.0 %
     Test CRC 2423ECFF
     Copy CRC 2423ECFF
     Accurately ripped (confidence 1)  [531D2C1E]
     Copy OK

Track 11

     Filename D:\EAC Rips\Various Artists - 1995 - A Piano Weekend\11 - 11 - Beethoven- Fur Elise - 11 - Beethoven- Fur Elise.wav

     Pre-gap length  0:00:02.10

     Peak level 41.6 %
     Track quality 100.0 %
     Test CRC B80F7EA5
     Copy CRC B80F7EA5
     Accurately ripped (confidence 1)  [690DBED2]
     Copy OK

Track 12

     Filename D:\EAC Rips\Various Artists - 1995 - A Piano Weekend\12 - 12 - Liszt- Hungarian Rhapsody - 12 - Liszt- Hungarian Rhapsody.wav

     Pre-gap length  0:00:02.14

     Peak level 96.1 %
     Track quality 99.9 %
     Test CRC CC0AEC9C
     Copy CRC CC0AEC9C
     Accurately ripped (confidence 1)  [D196141F]
     Copy OK

Track 13

     Filename D:\EAC Rips\Various Artists - 1995 - A Piano Weekend\13 - 13 - Mozart- Fantasia - 13 - Mozart- Fantasia.wav

     Pre-gap length  0:00:02.04

     Peak level 84.1 %
     Track quality 100.0 %
     Test CRC 3D4F4BA4
     Copy CRC 3D4F4BA4
     Accurately ripped (confidence 1)  [CB7D4DD2]
     Copy OK

Track 14

     Filename D:\EAC Rips\Various Artists - 1995 - A Piano Weekend\14 - 14 - Mozart- Rondo - 14 - Mozart- Rondo.wav

     Pre-gap length  0:00:01.88

     Peak level 61.6 %
     Track quality 100.0 %
     Test CRC 12BDF533
     Copy CRC 12BDF533
     Accurately ripped (confidence 1)  [E7B03EFB]
     Copy OK

Track 15

     Filename D:\EAC Rips\Various Artists - 1995 - A Piano Weekend\15 - 15 - Schubert- Impromptu - 15 - Schubert- Impromptu.wav

     Pre-gap length  0:00:02.38

     Peak level 66.8 %
     Track quality 100.0 %
     Test CRC 25A5E27F
     Copy CRC 25A5E27F
     Accurately ripped (confidence 1)  [5004C589]
     Copy OK

Track 16

     Filename D:\EAC Rips\Various Artists - 1995 - A Piano Weekend\16 - 16 - Schubert- Moment Musical - 16 - Schubert- Moment Musical.wav

     Pre-gap length  0:00:02.08

     Peak level 56.3 %
     Track quality 100.0 %
     Test CRC EE6C5F74
     Copy CRC EE6C5F74
     Accurately ripped (confidence 1)  [885D25A6]
     Copy OK

Track 17

     Filename D:\EAC Rips\Various Artists - 1995 - A Piano Weekend\17 - 17 - Schumann- Traumerei - 17 - Schumann- Traumerei.wav

     Pre-gap length  0:00:02.90

     Peak level 33.3 %
     Track quality 99.9 %
     Test CRC D676B168
     Copy CRC D676B168
     Accurately ripped (confidence 1)  [2859488F]
     Copy OK

All tracks accurately ripped

No errors occurred

End of status report

Код:

auCDtect: CD records authenticity detector, version 0.8.2
Copyright (c) 2004 Oleg Berngardt. All rights reserved.
Copyright (c) 2004 Alexander Djourik. All rights reserved.
------------------------------------------------------------
Processing file:  [01 - Chopin- Polonaise.wav]
Detected average hi-boundary frequency: 2.024200e+004 Hz
Detected average lo-boundary frequency: 1.320683e+004 Hz
Detected average hi-cut frequency: 2.024499e+004 Hz
Detected average lo-cut frequency: 7.593120e+003 Hz
Maximum probablis boundary frequency: 2.189100e+004 Hz
Coefficient of nonlinearity of a phase: 5.443742e-001
First order smothness: 3.724816e-001
Second order smothness: 6.955774e-001

------------------------------------------------------------
This track looks like MPEG with probability 90%

------------------------------------------------------------
Processing file:  [02 - Chopin- Prelude in A major.wav]
Detected average hi-boundary frequency: 2.030122e+004 Hz
Detected average lo-boundary frequency: 1.114158e+004 Hz
Detected average hi-cut frequency: 2.050985e+004 Hz
Detected average lo-cut frequency: 3.054303e+003 Hz
Maximum probablis boundary frequency: 2.189100e+004 Hz
Coefficient of nonlinearity of a phase: 1.016001e+000
First order smothness: 4.285714e-001
Second order smothness: 6.265306e-001

------------------------------------------------------------
This track looks like CDDA with probability 42%

------------------------------------------------------------
Processing file:  [03 - Chopin- Prelude in D flat.wav]
Detected average hi-boundary frequency: 2.024881e+004 Hz
Detected average lo-boundary frequency: 1.176137e+004 Hz
Detected average hi-cut frequency: 2.038107e+004 Hz
Detected average lo-cut frequency: 4.282701e+003 Hz
Maximum probablis boundary frequency: 2.189100e+004 Hz
Coefficient of nonlinearity of a phase: 5.914794e-001
First order smothness: 4.069250e-001
Second order smothness: 6.549094e-001

------------------------------------------------------------
This track looks like MPEG with probability 89%

------------------------------------------------------------
Processing file:  [04 - Chopin- Waltz in C Sharp.wav]
Detected average hi-boundary frequency: 2.043810e+004 Hz
Detected average lo-boundary frequency: 1.127657e+004 Hz
Detected average hi-cut frequency: 2.123073e+004 Hz
Detected average lo-cut frequency: 1.542391e+004 Hz
Maximum probablis boundary frequency: 2.097100e+004 Hz
Coefficient of nonlinearity of a phase: 6.207246e-001
First order smothness: 4.840142e-001
Second order smothness: 8.197158e-001

------------------------------------------------------------
This track looks like CDDA with probability 100%

------------------------------------------------------------
Processing file:  [05 - Debussy- Clare de lune.wav]
Detected average hi-boundary frequency: 2.027255e+004 Hz
Detected average lo-boundary frequency: 1.154471e+004 Hz
Detected average hi-cut frequency: 2.032142e+004 Hz
Detected average lo-cut frequency: 4.145641e+003 Hz
Maximum probablis boundary frequency: 2.189100e+004 Hz
Coefficient of nonlinearity of a phase: 9.908508e-001
First order smothness: 4.674743e-001
Second order smothness: 6.244403e-001

------------------------------------------------------------
This track looks like CDDA with probability 43%

------------------------------------------------------------
Processing file:  [06 - Grieg- Wedding Day at Troldhaugen.wav]
Detected average hi-boundary frequency: 2.027677e+004 Hz
Detected average lo-boundary frequency: 1.237953e+004 Hz
Detected average hi-cut frequency: 2.072372e+004 Hz
Detected average lo-cut frequency: 7.715905e+003 Hz
Maximum probablis boundary frequency: 2.189100e+004 Hz
Coefficient of nonlinearity of a phase: 1.687762e-001
First order smothness: 4.448071e-001
Second order smothness: 6.857567e-001

------------------------------------------------------------
This track looks like CDDA with probability 54%

------------------------------------------------------------
Processing file:  [07 - Bach- Prelude to Fague.wav]
Detected average hi-boundary frequency: 2.009529e+004 Hz
Detected average lo-boundary frequency: 1.208600e+004 Hz
Detected average hi-cut frequency: 2.079314e+004 Hz
Detected average lo-cut frequency: 4.151891e+003 Hz
Maximum probablis boundary frequency: 2.189100e+004 Hz
Coefficient of nonlinearity of a phase: 1.403306e+000
First order smothness: 3.964758e-001
Second order smothness: 6.354626e-001

------------------------------------------------------------
This track looks like CDDA with probability 100%

------------------------------------------------------------
Processing file:  [08 - Bach- Fague.wav]
Detected average hi-boundary frequency: 2.023732e+004 Hz
Detected average lo-boundary frequency: 1.115056e+004 Hz
Detected average hi-cut frequency: 2.074235e+004 Hz
Detected average lo-cut frequency: 5.666559e+003 Hz
Maximum probablis boundary frequency: 2.189100e+004 Hz
Coefficient of nonlinearity of a phase: 6.147869e-001
First order smothness: 4.846029e-001
Second order smothness: 6.361426e-001

------------------------------------------------------------
This track looks like CDDA with probability 87%

------------------------------------------------------------
Processing file:  [09 - Brahms- Waltz in A major.wav]
Detected average hi-boundary frequency: 2.013890e+004 Hz
Detected average lo-boundary frequency: 1.050276e+004 Hz
Detected average hi-cut frequency: 2.134972e+004 Hz
Detected average lo-cut frequency: 4.271042e+003 Hz
Maximum probablis boundary frequency: 2.189100e+004 Hz
Coefficient of nonlinearity of a phase: 2.064247e+000
First order smothness: 5.373424e-001
Second order smothness: 6.178468e-001

------------------------------------------------------------
This track looks like CDDA with probability 100%

------------------------------------------------------------
Processing file:  [10 - Beethoven- Rondo.wav]
Detected average hi-boundary frequency: 2.018450e+004 Hz
Detected average lo-boundary frequency: 1.186814e+004 Hz
Detected average hi-cut frequency: 2.077709e+004 Hz
Detected average lo-cut frequency: 5.480753e+003 Hz
Maximum probablis boundary frequency: 2.189100e+004 Hz
Coefficient of nonlinearity of a phase: 2.173917e-001
First order smothness: 4.117850e-001
Second order smothness: 6.843556e-001

------------------------------------------------------------
This track looks like CDDA with probability 58%

------------------------------------------------------------
Processing file:  [11 - Beethoven- Fur Elise.wav]
Detected average hi-boundary frequency: 2.022041e+004 Hz
Detected average lo-boundary frequency: 1.055984e+004 Hz
Detected average hi-cut frequency: 2.044387e+004 Hz
Detected average lo-cut frequency: 4.669591e+003 Hz
Maximum probablis boundary frequency: 2.189100e+004 Hz
Coefficient of nonlinearity of a phase: 3.313314e-001
First order smothness: 5.145518e-001
Second order smothness: 6.325184e-001

------------------------------------------------------------
This track looks like MPEG with probability 89%

------------------------------------------------------------
Processing file:  [12 - Liszt- Hungarian Rhapsody.wav]
Detected average hi-boundary frequency: 2.026500e+004 Hz
Detected average lo-boundary frequency: 1.188627e+004 Hz
Detected average hi-cut frequency: 1.973159e+004 Hz
Detected average lo-cut frequency: 8.039828e+003 Hz
Maximum probablis boundary frequency: 2.189100e+004 Hz
Coefficient of nonlinearity of a phase: 3.280764e-001
First order smothness: 4.497640e-001
Second order smothness: 6.935266e-001

------------------------------------------------------------
This track looks like MPEG with probability 99%

------------------------------------------------------------
Processing file:  [13 - Mozart- Fantasia.wav]
Detected average hi-boundary frequency: 2.010296e+004 Hz
Detected average lo-boundary frequency: 1.088632e+004 Hz
Detected average hi-cut frequency: 2.127744e+004 Hz
Detected average lo-cut frequency: 4.810914e+003 Hz
Maximum probablis boundary frequency: 2.189100e+004 Hz
Coefficient of nonlinearity of a phase: 1.818122e-001
First order smothness: 4.500680e-001
Second order smothness: 6.544218e-001

------------------------------------------------------------
This track looks like CDDA with probability 100%

------------------------------------------------------------
Processing file:  [14 - Mozart- Rondo.wav]
Detected average hi-boundary frequency: 2.024643e+004 Hz
Detected average lo-boundary frequency: 1.047589e+004 Hz
Detected average hi-cut frequency: 2.042005e+004 Hz
Detected average lo-cut frequency: 5.721261e+003 Hz
Maximum probablis boundary frequency: 2.189100e+004 Hz
Coefficient of nonlinearity of a phase: 1.184228e+000
First order smothness: 4.908907e-001
Second order smothness: 6.857287e-001

------------------------------------------------------------
This track looks like CDDA with probability 43%

------------------------------------------------------------
Processing file:  [15 - Schubert- Impromptu.wav]
Detected average hi-boundary frequency: 2.023304e+004 Hz
Detected average lo-boundary frequency: 1.236815e+004 Hz
Detected average hi-cut frequency: 2.044899e+004 Hz
Detected average lo-cut frequency: 6.541477e+003 Hz
Maximum probablis boundary frequency: 2.189100e+004 Hz
Coefficient of nonlinearity of a phase: 4.451283e-001
First order smothness: 3.873452e-001
Second order smothness: 6.940074e-001

------------------------------------------------------------
This track looks like CDDA with probability 43%

------------------------------------------------------------
Processing file:  [16 - Schubert- Moment Musical.wav]
Detected average hi-boundary frequency: 2.033377e+004 Hz
Detected average lo-boundary frequency: 1.142927e+004 Hz
Detected average hi-cut frequency: 2.041634e+004 Hz
Detected average lo-cut frequency: 4.725392e+003 Hz
Maximum probablis boundary frequency: 2.189100e+004 Hz
Coefficient of nonlinearity of a phase: 9.629059e-001
First order smothness: 4.090572e-001
Second order smothness: 6.473645e-001

------------------------------------------------------------
This track looks like CDDA with probability 49%

------------------------------------------------------------
Processing file:  [17 - Schumann- Traumerei.wav]
Detected average hi-boundary frequency: 2.021669e+004 Hz
Detected average lo-boundary frequency: 1.117593e+004 Hz
Detected average hi-cut frequency: 2.100911e+004 Hz
Detected average lo-cut frequency: 9.791835e+003 Hz
Maximum probablis boundary frequency: 2.189100e+004 Hz
Coefficient of nonlinearity of a phase: 1.611333e+000
First order smothness: 4.462507e-001
Second order smothness: 7.420031e-001

------------------------------------------------------------
This track looks like CDDA with probability 100%
Прoдолжительность: 01:06:31
Кодек: APE
Тип рипа: image +.cue

Трeклист:
Composer:  Сергей Васильевич Рахманинов  (1873 - 1943) 

Rhapsody on a Theme of Paganini, Op.43
01 Introduction, Variation 1, 2, 3, 4, 5, 6 (03:35)
02 Variation 7, 8, 9, 10 (03:16)
03 Variation 11, 12, 13, 14 und 15 (05:24)
04 Variation 16 und 17 (04:09)
05 Variation 18 (03:19)
06 Variation 19, 20, 21, 22, 23, 24 (05:36)

Piano Concerto No.2 in C minor, Op.18
07 1.Moderato (11:39)

Artists: Tamas Vasary, Piano
Orchestra: London Symphony Orchestra
Conductor: Yuri Ahronovitch

08 Prelude in D, Op.23, No.4. Andante (04:30)

Artists: Lazar Berman, Piano

09 Vocalise, Op.34, No.14. Version Cello and Piano (07:11)

Artists: Mischa Maisky, Cello
Pavel Gililov, Piano

10 Piano Concerto No.3 in D minor, Op.30
1.Allegro ma non tanto (17:53)

Artists: Tamas Vasary, Piano
Orchestra: London Symphony Orchestra
Conductor: Yuri Ahronovitch
Exact Audio Copy V0.99 prebeta 4 from 23. January 2008

Отчёт EAC об извлечении, выполненном 30. апреля 2008, 0:02

Rachmaninov / Rachmaninov Weekend

Дисковод: TSSTcorpCD/DVDW SH-S182M Adapter: 4 ID: 0

Режим чтения : Достоверность
Использование точного потока : Да
Отключение кэша аудио : Да
Использование указателей C2 : Нет

Коррекция смещения при чтении : 6
Способность читать области Lead-in и Lead-out : Нет
Заполнение пропущенных сэмплов тишиной : Да
Удаление блоков с тишиной в начале и конце : Нет
При вычислениях CRC использовались нулевые сэмплы : Да
Интерфейс : Установленный внешний ASPI-интерфейс

Выходной формат : Monkey's Audio (без потерь)
Выбранный битрейт : Extra High Lossless Compression
Качество : Высокий
Добавление ID3-тэга : Да
Утилита сжатия : C:\Program Files\Monkey's Audio\MAC.exe

TOC извлечённого CD

Трек | Старт | Длительность | Начальный сектор | Конечный сектор
---------------------------------------------------------------------
1 | 0:00.00 | 3:34.49 | 0 | 16098
2 | 3:34.49 | 3:15.45 | 16099 | 30768
3 | 6:50.19 | 5:23.43 | 30769 | 55036
4 | 12:13.62 | 4:08.55 | 55037 | 73691
5 | 16:22.42 | 3:18.72 | 73692 | 88613
6 | 19:41.39 | 5:36.36 | 88614 | 113849
7 | 25:18.00 | 11:39.00 | 113850 | 166274
8 | 36:57.00 | 4:30.00 | 166275 | 186524
9 | 41:27.00 | 7:11.00 | 186525 | 218849
10 | 48:38.00 | 17:53.00 | 218850 | 299324

Характеристики диапазона извлечения и сообщения об ошибках

Выбранный диапазон

Имя файла D:\Documents\twdragon\Моя музыка\LOSSLESS\Classical\Weekend Classics\Rachmaninov Weekend\Rachmaninov Weekend.wav

Пиковый уровень 99.9 %
Качество диапазона 100.0 %
CRC копии 59341C17
Копирование... OK

Ошибок не произошло

AccurateRip: сводка

Трек 1 нет в базе данных
Трек 2 нет в базе данных
Трек 3 нет в базе данных
Трек 4 нет в базе данных
Трек 5 нет в базе данных
Трек 6 нет в базе данных
Трек 7 нет в базе данных
Трек 8 нет в базе данных
Трек 9 нет в базе данных
Трек 10 нет в базе данных

Ни одного трека нет в базе AccurateRip

Конец отчёта
AUDIOCHECKER v2.0 beta (build 457) - by Dester - opdester@freemail.hu
~~~~~~~~~~~~~~~~~~~~~~~~~~~~~~~~~~
-=== НЕ РЕДАКТИРУЙТЕ ЭТОТ ФАЙЛ! ===-

Путь: ...\а Rachmaninov Weekend

1 -=- Rachmaninov Weekend.ape -=- CDDA (94%)

50243300
Прoдолжительность: 01:05:11
Кодек: APE
Тип рипа: image +.cue

Трeклист:
Composer:  Claude Debussy (1862 - 1918) 

01 Prelude a l'apres-midi d'un faune (11:43)

Orchestra: Orchestra dell'Accademia Nazionale di Santa Cecilia
Conductor: Leonard Bernstein
_______________________________________________

Composer: Pietro Mascagni (1863 - 1945)

02 Cavalleria rusticana. Intermezzo sinfonico (04:04)

Orchestra: Gothenburg Symphony Orchestra
Conductor: Neeme Jarvi
_______________________________________________

Composer: Felix Mendelssohn (1809 - 1847)

03 A Midsummer Night's Dream, Op.61 Incidental Music
No.7 Notturno (05:39)

Orchestra: Symphonieorchester des Bayerischen Rundfunks
Conductor: Rafael Kubelik
_______________________________________________

Composer: Camille Saint-Saens (1835 - 1921)

04 Le Carnaval des Animaux
Aquarium - Personnages a longues oreilles (02:48)

Artists: Alfons Kontarsky, Piano
Aloys Kontarsky, Piano
Orchestra: Wiener Philharmoniker
Conductor: Karl Bohm
_______________________________________________

Composer: Samuel Barber (1910 - 1981)

05 Adagio for Strings, Op.11 (10:08)

Orchestra: Los Angeles Philharmonic
Conductor: Leonard Bernstein
_______________________________________________

Composer: Giuseppe Verdi (1813 - 1901)

06 La traviata. Act 1. Prelude (03:40)

Orchestra: Bavarian State Orchestra
Conductor: Carlos Kleiber
_______________________________________________

Composer: Петр Ильич Чайковский (1840 - 1893)

Swan Lake, Op.20 Suite
07 1. Scene - Swan Theme (03:03)
08 2. Valse in A (06:53)

Artists: Leon Spierer, Violin
Eberhard Finke, Cello
Orchestra: Berliner Philharmoniker
Conductor: Мстислав Ростропович
_______________________________________________

Composer: Сергей Васильевич Рахманинов (1873 - 1943)

09 Vocalise, Op.34, No.14 (05:33)

Orchestra: Berliner Philharmoniker
Conductor: Lorin Maazel
_______________________________________________

Composer: Maurice Ravel (1875 - 1937)

10 Pavane pour une infante defunte (06:17)

Artists: Charles Kavaloski, Horn
Orchestra: Boston Symphony Orchestra
Conductor: Seiji Ozawa
_______________________________________________

Composer: Сергей Сергеевич Прокофьев (1891 - 1953)

11 Romeo and Juliet, Op.64. Act 3
39. Romeo bids Juliet farewell (05:23)

Orchestra: Boston Symphony Orchestra
Conductor: Seiji Ozawa, Conductor
Exact Audio Copy V0.99 prebeta 4 from 23. January 2008

Отчёт EAC об извлечении, выполненном 5. июня 2008, 18:09

Various / a Romantic Weekend

Дисковод: TSSTcorpCD/DVDW SH-S182M Adapter: 4 ID: 0

Режим чтения : Достоверность
Использование точного потока : Да
Отключение кэша аудио : Да
Использование указателей C2 : Нет

Коррекция смещения при чтении : 6
Способность читать области Lead-in и Lead-out : Нет
Заполнение пропущенных сэмплов тишиной : Да
Удаление блоков с тишиной в начале и конце : Нет
При вычислениях CRC использовались нулевые сэмплы : Да
Интерфейс : Установленный внешний ASPI-интерфейс

Выходной формат : Monkey's Audio (без потерь)
Выбранный битрейт : Extra High Lossless Compression
Качество : Высокий
Добавление ID3-тэга : Да
Утилита сжатия : C:\Program Files\Monkey's Audio\MAC.exe

TOC извлечённого CD

Трек | Старт | Длительность | Начальный сектор | Конечный сектор
---------------------------------------------------------------------
1 | 0:00.00 | 11:43.00 | 0 | 52724
2 | 11:43.00 | 4:04.00 | 52725 | 71024
3 | 15:47.00 | 5:39.00 | 71025 | 96449
4 | 21:26.00 | 2:48.00 | 96450 | 109049
5 | 24:14.00 | 10:08.00 | 109050 | 154649
6 | 34:22.00 | 3:40.00 | 154650 | 171149
7 | 38:02.00 | 3:03.00 | 171150 | 184874
8 | 41:05.00 | 6:53.00 | 184875 | 215849
9 | 47:58.00 | 5:33.00 | 215850 | 240824
10 | 53:31.00 | 6:17.00 | 240825 | 269099
11 | 59:48.00 | 5:23.30 | 269100 | 293354

Характеристики диапазона извлечения и сообщения об ошибках

Выбранный диапазон

Имя файла D:\Documents\twdragon\Моя музыка\LOSSLESS\Classical\Weekend Classics\Romantic Weekend\Various - a Romantic Weekend.wav

Пиковый уровень 99.9 %
Качество диапазона 99.9 %
CRC копии 262399F2
Копирование... OK

Ошибок не произошло

AccurateRip: сводка

Трек 1 нет в базе данных
Трек 2 нет в базе данных
Трек 3 нет в базе данных
Трек 4 нет в базе данных
Трек 5 нет в базе данных
Трек 6 нет в базе данных
Трек 7 нет в базе данных
Трек 8 нет в базе данных
Трек 9 нет в базе данных
Трек 10 нет в базе данных
Трек 11 нет в базе данных

Ни одного трека нет в базе AccurateRip

Конец отчёта
AUDIOCHECKER v2.0 beta (build 457) - by Dester - opdester@freemail.hu
~~~~~~~~~~~~~~~~~~~~~~~~~~~~~~~~~~
-=== НЕ РЕДАКТИРУЙТЕ ЭТОТ ФАЙЛ! ===-

Путь: ...\a Romantic Weekend

1 -=- Various - a Romantic Weekend.ape -=- CDDA (100%)

180004676
Прoдолжительность: 01:07:39
Кодек: APE
Тип рипа: image +.cue

Трeклист:
Composer:  Jacques Offenbach (1819 - 1880) 

01 Les Contes d'Hoffmann. Act 4.
"Belle nuit, o nuit d'amour" (03:51)

Artists: Edita Gruberova, Soprano
Claudia Eder, Mezzo-Soprano
Orchestra: Orchestre National De France
Conductor: Seiji Ozawa
Chorus: Choeurs de Radio France
Chorus Master: Jacques Jouineau
_______________________________________________

Composer: Giacomo Puccini (1858 - 1924)

02 Madama Butterfly. Act 2. Un bel di vedremo (05:04)

Artists: Mirella Freni, Soprano
Orchestra: Philharmonia Orchestra
Conductor: Giuseppe Sinopoli
_______________________________________________

Composer: Giuseppe Verdi (1813 - 1901)

03 La traviata. Act 1.
"Follie! Delirio vano e questo!" - "Sempre libera" (04:28)

Artists: Ileana Cotrubas, Soprano
Placido Domingo, Tenor
Orchestra: Bavarian State Orchestra
Conductor: Carlos Kleiber
_______________________________________________

Composer: Giacomo Puccini (1858 - 1924)

04 La Boheme. Act 1. "Si. Mi chiamano Mimi" (05:06)

Artists: Renata Scotto, Soprano
Gianni Poggi, Tenor
Orchestra: Orchestra del Maggio Musicale Fiorentino
Conductor: Antonino Votto
_______________________________________________

Composer: Wolfgang Amadeus Mozart (1756 - 1791)

05 Die Zauberflote, K.620. Act 2.
Der Holle Rache kocht in meinem Herzen (Konigin der Nacht)(03:01)

Artists: Karin Ott, Soprano
Orchestra: Berliner Philharmoniker
Conductor: Herbert von Karajan
_______________________________________________

Composer: Giuseppe Verdi (1813 - 1901)

06 Aida. Act 1. Ritorna vincitor! (06:46)

Artists: Grace Bumbry, Mezzo-Soprano
Orchestra: Orchester der Deutschen Oper Berlin
Conductor: Hans Lowlein
_______________________________________________

Composer: Giacomo Puccini (1858 - 1924)

07 Gianni Schicchi. O mio babbino caro (02:09)

Artists: Rita Streich, Soprano
Orchestra: Orchester der Deutschen Oper Berlin
Conductor: Reinhard Peters

08 Tosca. Act 2/ "Vissi d'arte, vissi d'amore" (03:41)

Artists: Mirella Freni, Soprano
Samuel Ramey, Bass
Orchestra: Philharmonia Orchestra
Conductor: Giuseppe Sinopoli
_______________________________________________

Composer: Jules Massenet (1842 - 1912)

09 Manon. Act 2.
Allons, il le faut...Adieu, notre petite table (04:46)

Artists: Beverly Sills, Soprano
Orchestra: New Philharmonia Orchestra, Orchestra
Conductor: Julius Rudel
_______________________________________________

Composer: Wolfgang Amadeus Mozart (1756 - 1791)

10 Le nozze di Figaro, K.492. Act 2. "Porgi amor" (04:23)

11 Le nozze di Figaro, K.492. Act 3.
"E Susanna non vien!" - "Dove sono i bei momenti" (06:58)

Artists: Kiri Te Kanawa, Soprano
Orchestra: Metropolitan Opera Orchestra
Conductor: James Levine
_______________________________________________

Composer: Charles Gounod (1818 - 1893)

12 Ave Maria: arr. from Bach's Prelude No.1 BWV 846
(Arr. Carlo Sabatini) (02:09)

Artists: Cheryl Studer, Soprano
Orchestra: London Symphony Orchestra
Conductor: Ion Marin
_______________________________________________

Richard Wagner (1813 - 1883)

13 Tristan und Isolde. Act 3.
"Mild und leise wie er lachelt"(Isoldes Liebestod)(Isolde)(06:28)

Artists: Birgit Nilsson, Soprano
Orchestra: Orchester der Bayreuther Festspiele
Conductor: Karl Bohm
_______________________________________________

Composer: Franz Schubert (1797 - 1828)

14 Ave Maria, "Ellens Gesang III", D839 (Arr. Ion Marin) (05:42)

Artists: Cheryl Studer, Soprano
Orchestra: London Symphony Orchestra
Conductor: Ion Marin

15 Schlof sche, mein Vogele (03:07)

Artists: Rita Streich, Soprano
Fred Artmeier, Guitar
Orchestra: Instrumental-Vereinigung
Conductor: Carl Michalski
Exact Audio Copy V0.99 prebeta 4 from 23. January 2008

Отчёт EAC об извлечении, выполненном 26. мая 2008, 22:46

Various / Soprano Weekend

Дисковод: TSSTcorpCD/DVDW SH-S182M Adapter: 4 ID: 0

Режим чтения : Достоверность
Использование точного потока : Да
Отключение кэша аудио : Да
Использование указателей C2 : Нет

Коррекция смещения при чтении : 6
Способность читать области Lead-in и Lead-out : Нет
Заполнение пропущенных сэмплов тишиной : Да
Удаление блоков с тишиной в начале и конце : Нет
При вычислениях CRC использовались нулевые сэмплы : Да
Интерфейс : Установленный внешний ASPI-интерфейс

Выходной формат : Monkey's Audio (без потерь)
Выбранный битрейт : Extra High Lossless Compression
Качество : Высокий
Добавление ID3-тэга : Да
Утилита сжатия : C:\Program Files\Monkey's Audio\MAC.exe

TOC извлечённого CD

Трек | Старт | Длительность | Начальный сектор | Конечный сектор
---------------------------------------------------------------------
1 | 0:00.00 | 3:51.00 | 0 | 17324
2 | 3:51.00 | 5:04.00 | 17325 | 40124
3 | 8:55.00 | 4:28.00 | 40125 | 60224
4 | 13:23.00 | 5:06.00 | 60225 | 83174
5 | 18:29.00 | 3:01.00 | 83175 | 96749
6 | 21:30.00 | 6:46.00 | 96750 | 127199
7 | 28:16.00 | 2:09.00 | 127200 | 136874
8 | 30:25.00 | 3:41.00 | 136875 | 153449
9 | 34:06.00 | 4:46.00 | 153450 | 174899
10 | 38:52.00 | 4:22.62 | 174900 | 194611
11 | 43:14.62 | 6:58.13 | 194612 | 225974
12 | 50:13.00 | 2:09.00 | 225975 | 235649
13 | 52:22.00 | 6:28.00 | 235650 | 264749
14 | 58:50.00 | 5:42.00 | 264750 | 290399
15 | 64:32.00 | 3:07.00 | 290400 | 304424

Характеристики диапазона извлечения и сообщения об ошибках

Выбранный диапазон

Имя файла D:\Documents\twdragon\Моя музыка\LOSSLESS\Classical\Weekend Classics\Soprano Weekend\Various - Soprano Weekend.wav

Пиковый уровень 99.9 %
Качество диапазона 100.0 %
CRC копии B08274B7
Копирование... OK

Ошибок не произошло

AccurateRip: сводка

Трек 1 нет в базе данных
Трек 2 нет в базе данных
Трек 3 нет в базе данных
Трек 4 нет в базе данных
Трек 5 нет в базе данных
Трек 6 нет в базе данных
Трек 7 нет в базе данных
Трек 8 нет в базе данных
Трек 9 нет в базе данных
Трек 10 нет в базе данных
Трек 11 нет в базе данных
Трек 12 нет в базе данных
Трек 13 нет в базе данных
Трек 14 нет в базе данных
Трек 15 нет в базе данных

Ни одного трека нет в базе AccurateRip

Конец отчёта
AUDIOCHECKER v2.0 beta (build 457) - by Dester - opdester@freemail.hu
~~~~~~~~~~~~~~~~~~~~~~~~~~~~~~~~~~
-=== НЕ РЕДАКТИРУЙТЕ ЭТОТ ФАЙЛ! ===-

Путь: ...\a Soprano Weekend

1 -=- Various - Soprano Weekend.ape -=- CDDA (100%)

80191716
Прoдолжительность: 01:08:16
Кодек: APE
Тип рипа: image +.cue

Трeклист:
Composer:  Петр Ильич Чайковский (1840 - 1893) 

01 Swan Lake, Op.20 Suite. Scene - Swan Theme (03:07)

Artists: Leon Spierer, Violin
Eberhard Finke, Cello
Orchestra: Berliner Philharmoniker
Conductor: Мстислав Ростропович
_______________________________________________

02 Nutcracker Suite, Op.71a
3.Waltz of the Flowers (06:47)

03 The Sleeping Beauty, Suite, Op.66a
Introduction - The Lilac Fairy (04:36)

Orchestra: Berliner Philharmoniker
Conductor: Мстислав Ростропович
_______________________________________________

04 Symphony No.2 in C minor, Op.17 "Little Russian"
Finale. Moderato assai - Allegro vivo - Presto (10:35)

Orchestra: New Philharmonia Orchestra
Conductor: Claudio Abbado
_______________________________________________

05 Eugene Onegin, Op.24. Act 2. Valse (06:40)

Orchestra: Radio-Symphonie-Orchester Berlin
Conductor: Ferenc Fricsayster
_______________________________________________

06 Piano Concerto No.1 in B flat minor, Op.23
1.Allegro non troppo e molto maestoso - Allegro con spirito (21:14)

Artists: Martha Argerich, Piano
Orchestra: Royal Philharmonic Orchestra
Conductor: Charles Dutoit
_______________________________________________

07 Capriccio italien, Op.45 (15:16)

Orchestra: Berliner Philharmoniker
Conductor: Ferdinand Leitner

Exact Audio Copy V0.99 prebeta 4 from 23. January 2008

Отчёт EAC об извлечении, выполненном 26. мая 2008, 21:35

Peter Tchaikovsky / Tchaikovsky Weekend

Дисковод: TSSTcorpCD/DVDW SH-S182M Adapter: 4 ID: 0

Режим чтения : Достоверность
Использование точного потока : Да
Отключение кэша аудио : Да
Использование указателей C2 : Нет

Коррекция смещения при чтении : 6
Способность читать области Lead-in и Lead-out : Нет
Заполнение пропущенных сэмплов тишиной : Да
Удаление блоков с тишиной в начале и конце : Нет
При вычислениях CRC использовались нулевые сэмплы : Да
Интерфейс : Установленный внешний ASPI-интерфейс

Выходной формат : Monkey's Audio (без потерь)
Выбранный битрейт : Extra High Lossless Compression
Качество : Высокий
Добавление ID3-тэга : Да
Утилита сжатия : C:\Program Files\Monkey's Audio\MAC.exe

TOC извлечённого CD

Трек | Старт | Длительность | Начальный сектор | Конечный сектор
---------------------------------------------------------------------
1 | 0:00.00 | 3:07.02 | 0 | 14026
2 | 3:07.02 | 6:46.74 | 14027 | 44550
3 | 9:54.01 | 4:36.22 | 44551 | 65272
4 | 14:30.23 | 10:35.01 | 65273 | 112898
5 | 25:05.24 | 6:40.17 | 112899 | 142915
6 | 31:45.41 | 21:14.12 | 142916 | 238477
7 | 52:59.53 | 15:16.22 | 238478 | 307199

Характеристики диапазона извлечения и сообщения об ошибках

Выбранный диапазон

Имя файла D:\Documents\twdragon\Моя музыка\LOSSLESS\Classical\Weekend Classics\Tchaikovsky Weekend\Peter Tchaikovsky - Tchaikovsky Weekend.wav

Пиковый уровень 98.3 %
Качество диапазона 99.9 %
CRC копии 4C1FBD50
Копирование... OK

Ошибок не произошло

AccurateRip: сводка

Трек 1 нет в базе данных
Трек 2 нет в базе данных
Трек 3 нет в базе данных
Трек 4 нет в базе данных
Трек 5 нет в базе данных
Трек 6 нет в базе данных
Трек 7 нет в базе данных

Ни одного трека нет в базе AccurateRip

Конец отчёта
AUDIOCHECKER v2.0 beta (build 457) - by Dester - opdester@freemail.hu
~~~~~~~~~~~~~~~~~~~~~~~~~~~~~~~~~~
-=== НЕ РЕДАКТИРУЙТЕ ЭТОТ ФАЙЛ! ===-

Путь: ...\a Tchaikovsky Weekend

1 -=- Peter Tchaikovsky - Tchaikovsky Weekend.ape -=- CDDA (100%)

79787940
Прoдолжительность: 01:02:03
Кодек: APE
Тип рипа: image +.cue

Трeклист:
Composer:  Agustin Lara (1900 - 1970) 

01 "Granada" (Fantasia Espanola) (Arr. Marcel Peeters) (03:55)

Artists: Placido Domingo, Tenor
Orchestra: London Symphony Orchestra
Conductor: Marcel Peeters
_______________________________________________

Composer: Gaetano Donizetti (1797 - 1848)

02 L'elisir d'amore. Act 2. "Una furtiva lagrima" (04:19)

Artists: Luciano Pavarotti, Tenor
Orchestra: Metropolitan Opera Orchestra
Conductor: James Levine
_______________________________________________

Composer: Giuseppe Verdi (1813 - 1901)

03 Aida. Act 1. Se quel guerrier io fossi!..Celeste Aida (04:38)

Artists: Placido Domingo, Tenor
Orchestra: Orchestra del Teatro alla Scala di Milano
Conductor: Claudio Abbado

04 Rigoletto. Act 2. Ella mi fu rapita -Parmi veder le lagrime (05:13)

Artists: Carlo Bergonzi, Tenor
Orchestra: Orchestra del Teatro alla Scala di Milano
Conductor: Rafael Kubelik
_______________________________________________

Composer: Wolfgang Amadeus Mozart (1756 - 1791)

05 Die Zauberflote, K.620. Act 1.
Dies Bildnis ist bezaubernd schon (Tamino) (04:41)

Artists: Fritz Wunderlich, Tenor
Orchestra: Berliner Philharmoniker
Conductor: Karl Bohm
_______________________________________________

Composer: Amilcare Ponchielli (1834 - 1886)

06 La Gioconda. Act 2. "Cielo e mar" (04:28)

Artists: Giuseppe di Stefano, Tenor
Orchestra: Orchestra del Maggio Musicale Fiorentino
Conductor: Bruno Bartoletti
_______________________________________________

Composer: Wolfgang Amadeus Mozart (1756 - 1791)

07 Die Entfuhrung aus dem Serail, K.384. Act 2.
"Wenn der Freude Tranen flie?en" (05:10)

Artists: Peter Schreier, Tenor
Orchestra: Sachsische Staatskapelle Dresden
Conductor: Karl Bohm
_______________________________________________

Composer:
Franz Lehar (1870 - 1948)

08 The Merry Widow (Die lustige Witwe). Act 1.
Auftrittslied: "O Vaterland... Da geh' ich zu Maxim" (03:03)

Artists: Rene Kollo, Tenor
Orchestra: Berliner Philharmoniker
Conductor: Herbert von Karajan
_______________________________________________

Composer: Leonard Bernstein (1918 - 1990)

09 West Side Story. Maria (03:02)

Artists: Jose Carreras, Tenor
Orchestra:
Conductor: Leonard Bernstein
_______________________________________________

Composer: Giacomo Puccini (1858 - 1924)

10 Tosca. Act 3. "E lucevan le stelle" (04:33)

Artists: Placido Domingo, Tenor
Orchestra: Philharmonia Orchestra
Conductor: Giuseppe Sinopoli
_______________________________________________

Composer: Giuseppe Verdi (1813 - 1901)

11 La forza del destino. Act 3.
La vita e inferno...Oh, tu che in seno agl'angeli (05:43)

Artists: Jose Carreras, Tenor
Philharmonia Orchestra
Orchestra: Philharmonia Orchestra
Conductor: Giuseppe Sinopoli

12 La traviata. Act 2.
"Lunge da lei" - "De' miei bollenti spiriti" (03:26)

Artists: Luciano Pavarotti, Tenor
Orchestra: Metropolitan Opera Orchestra
Conductor: James Levine
_______________________________________________

Composer: Giacomo Puccini (1858 - 1924)

13 Manon Lescaut. Act 1. "Donna non vidi mai" (02:23)

Artists: Jose Cura, Tenor
Orchestra: Orchestra del Teatro alla Scala di Milano
Conductor: Riccardo Muti

14 Turandot. Act 3. "Nessun dorma" (03:29)

Artists: Placido Domingo, Tenor
Orchestra: Wiener Philharmoniker
Conductor: Herbert von Karajan
Chorus: Wiener Staatsopernchor
Chorus Master: Roberto Benaglio
_______________________________________________

Composer: Giuseppe Verdi (1813 - 1901)

15 Messa da Requiem. 2. Ingemisco (04:00)

Artists: Jose Carreras, Tenor
Orchestra: Wiener Philharmoniker
Conductor: Herbert von Karajan
Exact Audio Copy V0.99 prebeta 4 from 23. January 2008

Отчёт EAC об извлечении, выполненном 5. июня 2008, 17:16

Various / a Tenor Weekend

Дисковод: TSSTcorpCD/DVDW SH-S182M Adapter: 4 ID: 0

Режим чтения : Достоверность
Использование точного потока : Да
Отключение кэша аудио : Да
Использование указателей C2 : Нет

Коррекция смещения при чтении : 6
Способность читать области Lead-in и Lead-out : Нет
Заполнение пропущенных сэмплов тишиной : Да
Удаление блоков с тишиной в начале и конце : Нет
При вычислениях CRC использовались нулевые сэмплы : Да
Интерфейс : Установленный внешний ASPI-интерфейс

Выходной формат : Monkey's Audio (без потерь)
Выбранный битрейт : Extra High Lossless Compression
Качество : Высокий
Добавление ID3-тэга : Да
Утилита сжатия : C:\Program Files\Monkey's Audio\MAC.exe

TOC извлечённого CD

Трек | Старт | Длительность | Начальный сектор | Конечный сектор
---------------------------------------------------------------------
1 | 0:00.00 | 3:55.33 | 0 | 17657
2 | 3:55.33 | 4:18.52 | 17658 | 37059
3 | 8:14.10 | 4:37.59 | 37060 | 57893
4 | 12:51.69 | 5:13.31 | 57894 | 81399
5 | 18:05.25 | 4:40.40 | 81400 | 102439
6 | 22:45.65 | 4:27.47 | 102440 | 122511
7 | 27:13.37 | 5:09.69 | 122512 | 145755
8 | 32:23.31 | 3:03.35 | 145756 | 159515
9 | 35:26.66 | 3:02.31 | 159516 | 173196
10 | 38:29.22 | 4:32.69 | 173197 | 193665
11 | 43:02.16 | 5:42.50 | 193666 | 219365
12 | 48:44.66 | 3:26.21 | 219366 | 234836
13 | 52:11.12 | 2:22.66 | 234837 | 245552
14 | 54:34.03 | 3:29.05 | 245553 | 261232
15 | 58:03.08 | 3:59.59 | 261233 | 279216

Характеристики диапазона извлечения и сообщения об ошибках

Выбранный диапазон

Имя файла D:\Documents\twdragon\Моя музыка\LOSSLESS\Classical\Weekend Classics\Tenor Weekend\Various - a Tenor Weekend.wav

Пиковый уровень 89.1 %
Качество диапазона 100.0 %
CRC копии ABC309D2
Копирование... OK

Ошибок не произошло

AccurateRip: сводка

Трек 1 нет в базе данных
Трек 2 нет в базе данных
Трек 3 нет в базе данных
Трек 4 нет в базе данных
Трек 5 нет в базе данных
Трек 6 нет в базе данных
Трек 7 нет в базе данных
Трек 8 нет в базе данных
Трек 9 нет в базе данных
Трек 10 нет в базе данных
Трек 11 нет в базе данных
Трек 12 нет в базе данных
Трек 13 нет в базе данных
Трек 14 нет в базе данных
Трек 15 нет в базе данных

Ни одного трека нет в базе AccurateRip

Конец отчёта
AUDIOCHECKER v2.0 beta (build 457) - by Dester - opdester@freemail.hu
~~~~~~~~~~~~~~~~~~~~~~~~~~~~~~~~~~
-=== НЕ РЕДАКТИРУЙТЕ ЭТОТ ФАЙЛ! ===-

Путь: ...\a Tenor Weekend

1 -=- Various - a Tenor Weekend.ape -=- CDDA (100%)

87947236
Прoдолжительность: 01:14:27
Кодек: APE
Тип рипа: image +.cue

Трeклист:
Composer:  Fritz Kreisler (1875 - 1962) 

01 Liebesleid. Tempo di Laendler (03:57)
02 Liebesfreud. Allegro (03:11)

Artists: Shlomo Mintz, Violin
Clifford Benson, Piano
_______________________________________________

Composer: Pablo de Sarasate (1844 - 1908)

03 Romanza andaluza Op.22, No.1 (04:27)

Artists: Christian Ferras, Violin
Jean-Claude Ambrosini, Piano
_______________________________________________

Composer: Johannes Brahms (1833-1897)

04 Sonata for Violin and Piano No.1 in G, Op.78
1.Vivace ma non troppo (09:51)

Artists: Christian Ferras, Violin
Pierre Barbizet, Piano
_______________________________________________

Composer: Ludwig van Beethoven (1770 - 1827)

05 Sonata for Violin and Piano No.5 in F, Op.24 - "Spring"
1.Allegro (10:35)

Artists: Yehudi Menuhin, Violin
Wilhelm Kempff, Piano
_______________________________________________

Composer: Nicolo Paganini (1782 - 1840)

06 24 Caprices for Violin, Op.1
No.24 in A minor (06:21)

Artists: Shlomo Mintz, Violin
_______________________________________________

Composer: Ludwig van Beethoven (1770 - 1827)

07 Violin Romance No.2 in F major, Op.50 (08:55)

Artists: David Oistrakh, Violin
Orchestra: Royal Philharmonic Orchestra
Conductor: Eugene Goossens
_______________________________________________

Composer: Felix Mendelssohn (1809 - 1847)

08 Violin Concerto in E minor, Op.64
3.Allegro non troppo - Allegro molto vivace (07:08)

Artists: Yong Uck Kim, Violin
Orchestra: Bamberg Symphony Orchestra
Conductor: Okko Kamu
_______________________________________________

Composer: Max Bruch (1838 - 1920)

09 Violin Concerto No.1 in G minor, Op.26
2.Adagio (08:29)

Artists: Yong Uck Kim, Violin
Orchestra: Bamberg Symphony Orchestra
Conductor: Okko Kamu
_______________________________________________

Composer: Wolfgang Amadeus Mozart (1756 - 1791)

10 Rondo for Violin and Orchestra in B flat, K.269
Allegro (06:41)

Artists: Wolfgang Schneiderhan, Violin
Orchestra: Berliner Philharmoniker
Conductor: Wolfgang Schneiderhan
_______________________________________________

Composer: Jules Massenet (1842 - 1912)

11 Thais. Acte Deux. Meditation (04:51)

Artists: Christer Thorvaldsson, Violin
Orchestra: Gothenburg Symphony Orchestra
Conductor: Neeme Jarvi
Exact Audio Copy V0.99 prebeta 4 from 23. January 2008

Отчёт EAC об извлечении, выполненном 1. мая 2008, 16:49

Various / A Violin Weekend

Дисковод: TSSTcorpCD/DVDW SH-S182M Adapter: 4 ID: 0

Режим чтения : Достоверность
Использование точного потока : Да
Отключение кэша аудио : Да
Использование указателей C2 : Нет

Коррекция смещения при чтении : 6
Способность читать области Lead-in и Lead-out : Нет
Заполнение пропущенных сэмплов тишиной : Да
Удаление блоков с тишиной в начале и конце : Нет
При вычислениях CRC использовались нулевые сэмплы : Да
Интерфейс : Установленный внешний ASPI-интерфейс

Выходной формат : Monkey's Audio (без потерь)
Выбранный битрейт : Extra High Lossless Compression
Качество : Высокий
Добавление ID3-тэга : Да
Утилита сжатия : C:\Program Files\Monkey's Audio\MAC.exe

TOC извлечённого CD

Трек | Старт | Длительность | Начальный сектор | Конечный сектор
---------------------------------------------------------------------
1 | 0:00.00 | 3:57.00 | 0 | 17774
2 | 3:57.00 | 3:11.00 | 17775 | 32099
3 | 7:08.00 | 4:26.67 | 32100 | 52116
4 | 11:34.67 | 9:51.08 | 52117 | 96449
5 | 21:26.00 | 10:35.15 | 96450 | 144089
6 | 32:01.15 | 6:21.20 | 144090 | 172684
7 | 38:22.35 | 8:54.43 | 172685 | 212777
8 | 47:17.03 | 7:08.32 | 212778 | 244909
9 | 54:25.35 | 8:29.30 | 244910 | 283114
10 | 62:54.65 | 6:40.62 | 283115 | 313176
11 | 69:35.52 | 4:50.67 | 313177 | 334993

Характеристики диапазона извлечения и сообщения об ошибках

Выбранный диапазон

Имя файла D:\Documents\twdragon\Моя музыка\LOSSLESS\Classical\Weekend Classics\Violin Weekend\Various - A Violin Weekend.wav

Пиковый уровень 99.9 %
Качество диапазона 99.9 %
CRC копии A3777C4B
Копирование... OK

Ошибок не произошло

AccurateRip: сводка

Трек 1 нет в базе данных
Трек 2 нет в базе данных
Трек 3 нет в базе данных
Трек 4 нет в базе данных
Трек 5 нет в базе данных
Трек 6 нет в базе данных
Трек 7 нет в базе данных
Трек 8 нет в базе данных
Трек 9 нет в базе данных
Трек 10 нет в базе данных
Трек 11 нет в базе данных

Ни одного трека нет в базе AccurateRip

Конец отчёта
AUDIOCHECKER v2.0 beta (build 457) - by Dester - opdester@freemail.hu
~~~~~~~~~~~~~~~~~~~~~~~~~~~~~~~~~~
-=== НЕ РЕДАКТИРУЙТЕ ЭТОТ ФАЙЛ! ===-

Путь: ...\a Violin Weekend

1 -=- Various - A Violin Weekend.ape -=- CDDA (100%)

225503828
Прoдолжительность: 01:08:49
Кодек: APE
Тип рипа: image +.cue

Трeклист:
Jules Massenet (1842 - 1912) 

01 Thais. Acte Deux. Meditation (04:54)

Artists: Christer Thorvaldsson, Violin
Orchestra: Gothenburg Symphony Orchestra
Conductor: Neeme Jarvi
_______________________________________________

Pietro Mascagni (1863 - 1945)

02 Cavalleria rusticana. Intermezzo sinfonico (04:06)

Orchestra: Gothenburg Symphony Orchestra
Conductor: Neeme Jarvi
_______________________________________________

Composer: Erik Satie (1866 - 1925)

03 3 Gymnopedies. Orch. Claude Debussy
3. Lent et douloureux (03:08)

Orchestra: Orpheus Chamber Orchestra
_______________________________________________

Composer: Ralph Vaughan Williams (1872 - 1958)

04 Fantasia on Greensleeves (04:31)

Orchestra: Orpheus Chamber Orchestra
_______________________________________________

Composer: Edvard Grieg (1843 - 1907)

05 Peer Gynt, Op.23. Incidental Music
No.13. Morning mood (04:14)

06 Peer Gynt, Op.23. Incidental Music
No.12a. The Death of Ase (Prelude to Act III) (03:48)

Orchestra: Gothenburg Symphony Orchestra
Conductor: Neeme Jarvi

07 Peer Gynt, Op.23. Incidental Music
No.19. Solveig's song (05:02)

Artists: Barbara Bonney, Soprano
Orchestra: Goteborgs Symfoniker
Conductor: Neeme Jarvi
_______________________________________________

Composer: Jules Massenet (1842 - 1912)

08 La Vierge (1880). Scene 4: The Assumption
Dernier sommeil de la Vierge (03:59)

Artists: Leo Winland, Cello
Orchestra: Gothenburg Symphony Orchestra
Conductor: Neeme Jarvi
_______________________________________________

Composer: Gabriel Faure (1845 - 1924)

09 Pavane, Op.50 (06:51)

Orchestra: Boston Symphony Orchestra, Orchestra
Conductor: Seiji Ozawa, Conductor
Chorus: Tanglewood Festival Chorus
Chorus Master: John Oliver
_______________________________________________

Composer: Ralph Vaughan Williams (1872-1958)

10 Fantasia on a Theme by Thomas Tallis
Largo sostenuto (14:13)

Artists: Guillermo Figueroa, Violin
Maureen Gallagher, Viola
Orchestra: Orpheus Chamber Orchestra
_______________________________________________

Composer: Camille Saint-Saens (1835 - 1921)

11 Le Carnaval des Animaux
Le cygne (Transcription for Cello and Piano) (03:36)

Artists: Mischa Maisky, Cello
Pavel Gililov, Piano
_______________________________________________

Composer: Gustav Mahler (1860 - 1911)

12 Symphony No.5 in C sharp minor
4. Adagietto (Sehr langsam) (10:25)

Orchestra: Philharmonia Orchestra
Conductor: Giuseppe Sinopoli
Exact Audio Copy V0.99 prebeta 4 from 23. January 2008

Отчёт EAC об извлечении, выполненном 29. апреля 2008, 17:32

Various / Weekend favourites

Дисковод: TSSTcorpCD/DVDW SH-S182M Adapter: 4 ID: 0

Режим чтения : Достоверность
Использование точного потока : Да
Отключение кэша аудио : Да
Использование указателей C2 : Нет

Коррекция смещения при чтении : 6
Способность читать области Lead-in и Lead-out : Нет
Заполнение пропущенных сэмплов тишиной : Да
Удаление блоков с тишиной в начале и конце : Нет
При вычислениях CRC использовались нулевые сэмплы : Да
Интерфейс : Установленный внешний ASPI-интерфейс

Выходной формат : Monkey's Audio (без потерь)
Выбранный битрейт : Extra High Lossless Compression
Качество : Высокий
Добавление ID3-тэга : Да
Утилита сжатия : C:\Program Files\Monkey's Audio\MAC.exe

TOC извлечённого CD

Трек | Старт | Длительность | Начальный сектор | Конечный сектор
---------------------------------------------------------------------
1 | 0:00.00 | 4:53.70 | 0 | 22044
2 | 4:53.70 | 4:06.37 | 22045 | 40531
3 | 9:00.32 | 3:08.34 | 40532 | 54665
4 | 12:08.66 | 4:31.20 | 54666 | 75010
5 | 16:40.11 | 4:14.22 | 75011 | 94082
6 | 20:54.33 | 3:47.58 | 94083 | 111165
7 | 24:42.16 | 5:01.67 | 111166 | 133807
8 | 29:44.08 | 3:59.18 | 133808 | 151750
9 | 33:43.26 | 6:50.74 | 151751 | 182574
10 | 40:34.25 | 14:12.39 | 182575 | 246513
11 | 54:46.64 | 3:36.21 | 246514 | 262734
12 | 58:23.10 | 10:25.32 | 262735 | 309641

Характеристики диапазона извлечения и сообщения об ошибках

Выбранный диапазон

Имя файла D:\Documents\twdragon\Моя музыка\LOSSLESS\Classical\Weekend Classics\Weekend Favourites\Weekend favourites.wav

Пиковый уровень 88.4 %
Качество диапазона 99.9 %
CRC копии DC6B0452
Копирование... OK

Ошибок не произошло

AccurateRip: сводка

Трек 1 нет в базе данных
Трек 2 нет в базе данных
Трек 3 нет в базе данных
Трек 4 нет в базе данных
Трек 5 нет в базе данных
Трек 6 нет в базе данных
Трек 7 нет в базе данных
Трек 8 нет в базе данных
Трек 9 нет в базе данных
Трек 10 нет в базе данных
Трек 11 нет в базе данных
Трек 12 нет в базе данных

Ни одного трека нет в базе AccurateRip

Конец отчёта
AUDIOCHECKER v2.0 beta (build 457) - by Dester - opdester@freemail.hu
~~~~~~~~~~~~~~~~~~~~~~~~~~~~~~~~~~
-=== НЕ РЕДАКТИРУЙТЕ ЭТОТ ФАЙЛ! ===-

Путь: ...\Weekend Favourites

1 -=- Weekend favourites.ape -=- CDDA (100%)

9399236

Этот торрент недоступен для скачивания без регистрации, однако доступен по публичной magnet-ссылке (источники с публичных трекеров). Перед использованием ссылки прочтите, пожалуйста Пользовательское соглашение, а также как можно дольше оставайтесь на раздаче! Для того, чтобы скачать сам торрент-файл (который видит больше источников), а также для того, чтобы поблагодарить релизера, вам необходимо зарегистрироваться. Если регистрироваться лень - вы можете также попробовать скачать релиз по нашим партнерским ссылкам ниже. Кроме того, зарегистрированным пользователям не показывается всплывающая реклама при скачивании.

[underver.se].t181420.torrent
Трекер: Зарегистрирован   [ 21.09.2020 17:57 ]  

Статус: проверено (by Бишеп at 22.09.2020 04:29)
Поблагодарили: 1 человек
Тип торрента: публичный - доступные источники с открытых трекеров: 
Размер: 2,81 GB (занимает 0,64 DVDR, для записи нужно 1 болванка DVDR/RW)
 
 
Похожие темы
Форум Тема Автор Торрент Отв. Посл. сооб.
Сборники Pop, Disco, Dance (Classical, Piano) VA - Piano Covers: 14 Beautiful Piano Arrangements Of Pop Hits (2019) [MP3, 320 kbps CBR] 90ytr90
7 | 0

0 | 569

19

14.09.2019 07:27

Сборники Pop, Disco, Dance (Classical, Easy Listening, Jazz, Score, Ballad) VA - The Sound Of Musicals The Ultimate Collection (Box Set, 5CD) (2019) [MP3, 320 kbps CBR] Magnat
0 | 0

0 | 575

6

28.10.2019 11:46

Вокальные и хоровые искусства (Classical) Jamie Barton - All Who Wander (Mahler, Dvorak, Sibelius; Zeger) (2016) [MP3, 320 kbps CBR] Darkferse
1 | 0

0 | 1715

7

04.09.2017 21:29

Вокальные и хоровые искусства (Classical, Romantic) Elina Garanca, Orquestra de la Comunitat Valenciana, Roberto Abbado - Revive (2016) [MP3, 320 kbps CBR] Darkferse
0 | 0

0 | 1613

5

04.09.2017 21:42

Вокальные и хоровые искусства (Classical) Khoren Mekanejian - Khorenian Divine Liturgy (Choir of St. Gregory the Illuminator Cathedral) (2017) [MP3, 320 kbps CBR] Darkferse
0 | 1

0 | 1502

4

04.09.2017 22:35

Оркестровая музыка (Classical) Прокофьев - Complete Symphonies/Полное собрание Симфоний [Валерий Гергиев, London Symphony Orchestra] (2006) [MP3, 320 kbps] Jimmy
0 | 0

0 | 3911

28

18.12.2013 17:55

Оркестровая музыка (Classical) Прокофьев - Complete Piano Concertos/Полное собрание Концертов для фортепиано [Александр Торадзе, Валерий Гергиев] (1997) [MP3, 320 kbps] Jimmy
0 | 0

0 | 3972

19

19.12.2013 16:52

Оркестровая музыка (Classical) Beethoven/Бетховен - Complete Symphonies and Piano Concertos/Полное собрание Симфоний и Концертов для фортепиано [Otto Klemperer, Daniel Barenboim] (2000) [MP3, 320 kbps] Jimmy
1 | 1

0 | 4825

38

24.12.2013 15:37

Оркестровая музыка (Classical) Шостакович - Полное собрание Симфоний / Complete Symphonies (Василий Петренко / Vasily Petrenko) (2015) [MP3, 320 kbps CBR] Darkferse
1 | 0

0 | 1593

17

28.12.2017 00:17

Камерная и инструментальная музыка (Classical) Вольфганг Амадей Моцарт / Wolfgang Amadeus Mozart - Romantic Classic (1999) [MP3, 320 kbps CBR] terra07
3 | 0

1 | 5543

83

13.04.2015 16:28


Яндекс.Метрика powered by Sphinx


В Н И М А Н И Е
Сайт не распространяет и не хранит электронные версии произведений, а лишь бесплатно и без коммерческой выгоды (не требуя взамен платы,
SMS и т.д.) предоставляет доступ к создаваемому пользователями каталогу ссылок на торрент-файлы, которые содержат только списки хеш-сумм.
Убедительная просьба с жалобами обращаться напрямую к пользователю, разместившему торрент файл.

Вверх